<?xml version="1.0" standalone="no"?>
<!DOCTYPE svg PUBLIC "-//W3C//DTD SVG 1.1//EN" "http://www.w3.org/Graphics/SVG/1.1/DTD/svg11.dtd" >
<svg xmlns="http://www.w3.org/2000/svg" xmlns:xlink="http://www.w3.org/1999/xlink" version="1.1">
<metadata></metadata>
<defs>
<font id="callie_handregular" horiz-adv-x="710" >
<font-face units-per-em="2048" ascent="1638" descent="-410" />
<missing-glyph horiz-adv-x="792" />
<glyph horiz-adv-x="0" />
<glyph horiz-adv-x="682" />
<glyph unicode=" "  horiz-adv-x="792" />
<glyph unicode="&#x09;" horiz-adv-x="792" />
<glyph unicode="&#xa0;" horiz-adv-x="792" />
<glyph unicode="!" horiz-adv-x="528" />
<glyph unicode="&#x22;" horiz-adv-x="442" />
<glyph unicode="#" horiz-adv-x="876" />
<glyph unicode="$" horiz-adv-x="649" />
<glyph unicode="%" horiz-adv-x="634" />
<glyph unicode="&#x26;" horiz-adv-x="577" />
<glyph unicode="'" horiz-adv-x="296" />
<glyph unicode="(" horiz-adv-x="450" />
<glyph unicode=")" horiz-adv-x="503" />
<glyph unicode="*" horiz-adv-x="516" />
<glyph unicode="+" horiz-adv-x="528" />
<glyph unicode="," horiz-adv-x="464" d="M-48 -64q-1 2 29 20q47 29 70 64q3 4 9 12.5t8.5 12t7.5 10t7 9.5t6 8t7 7t6.5 5t7 5t7.5 3q12 6 20 6.5t11 -7.5t-11 -32q-21 -37 -80 -81t-92 -44q-13 0 -13 2zM14 30q6 29 28 61.5t38 35.5q26 5 52 -7t20 -32q-15 -43 -58 -70.5t-63 -25.5q-23 9 -17 38z" />
<glyph unicode="-" horiz-adv-x="301" />
<glyph unicode="." horiz-adv-x="169" d="M11 70q21 48 48 67l9 4q26 5 52 -7t19 -32q-13 -42 -57 -70t-62 -24q-33 5 -9 62z" />
<glyph unicode="/" horiz-adv-x="784" />
<glyph unicode="0" horiz-adv-x="718" />
<glyph unicode="1" horiz-adv-x="612" />
<glyph unicode="2" horiz-adv-x="1028" />
<glyph unicode="3" horiz-adv-x="942" />
<glyph unicode="4" horiz-adv-x="821" />
<glyph unicode="5" horiz-adv-x="935" />
<glyph unicode="6" horiz-adv-x="796" />
<glyph unicode="7" horiz-adv-x="808" />
<glyph unicode="8" horiz-adv-x="876" />
<glyph unicode="9" horiz-adv-x="708" />
<glyph unicode=":" horiz-adv-x="368" />
<glyph unicode=";" horiz-adv-x="385" />
<glyph unicode="&#x3c;" horiz-adv-x="548" />
<glyph unicode="=" />
<glyph unicode="&#x3e;" horiz-adv-x="591" />
<glyph unicode="?" />
<glyph unicode="@" horiz-adv-x="884" />
<glyph unicode="A" horiz-adv-x="1099" d="M113 12q173 214 331 402q-20 -2 -42.5 -5.5t-35 -5.5t-16.5 -2q-20 -2 -26.5 8t-4 21.5t8.5 22.5l161 14q99 120 158 188q221 255 221 269l72 96q0 1 1 3t1 3v-2l10 14q7 -6 17 -16t26.5 -33.5t14.5 -38.5q0 -7 -6 -16q-19 -45 -56.5 -179.5t-62.5 -252.5q23 2 50.5 3.5 t44.5 2.5t26 2q52 1 50 -10q-2 -12 -45 -17l-24 -2q-21 0 -106 -10q-10 -43 -19 -117q-6 -57 -6 -116v-25q2 -72 10 -130q8 -59 34 -95q25 -36 65 -35h2q41 0 112 55q55 42 78 42h5q15 -4 -14 -31q-24 -24 -71 -50q-65 -37 -115 -47q-18 -4 -35 -3q-28 -1 -47 11 q-31 18 -52.5 44t-29.5 80q-6 53 -10 94q-1 15 -2 34q0 32 4 76q6 69 10 106t13 99q-119 -16 -229 -31q-296 -390 -314 -403q-26 -22 -70 -30q-12 -2 -24 -2q-31 0 -63 15zM618 479q59 3 201 17q26 187 62 329q-33 -44 -124.5 -163.5t-138.5 -182.5z" />
<glyph unicode="B" horiz-adv-x="1382" d="M92 564q10 17 45 38q111 10 214.5 30.5t172.5 43t122 44t78 34.5l24 14q215 264 225 270l25 -4q25 -9 25 -30q0 -29 -48 -80l-2 -2q-31 -40 -76 -101q304 161 459 168h13q108 0 108 -94q0 -16 -3 -35l-10 -43q-11 -39 -52.5 -79t-92 -69t-99 -52t-81.5 -35l-33 -11 q10 1 28 1q2 0 6 1q19 0 59 -3q47 -3 84.5 -11.5t72.5 -30.5q36 -24 46 -56q3 -10 3 -23q1 -27 -15 -65q-22 -56 -87 -128q-63 -71 -149.5 -127t-160.5 -86q-73 -31 -139 -41q-46 -7 -82 -7q-16 -1 -30 1q-46 4 -85.5 22t-62.5 35.5t-43 43t-25.5 35.5t-11.5 22 q-5 9 -5.5 18.5t2 15t7.5 7.5t13 -4.5t16 -20.5q2 -3 5 -9q11 -21 19 -32t31 -26q24 -15 54 -19q17 -3 42 -3q20 -1 44 1q56 4 128 20q98 21 209 88t175 151q40 53 40 94q0 25 -14 46q-16 24 -63 35q-41 10 -102 10h-17q-72 -2 -127 -6.5t-131 -13.5q-40 -4 -42 11 q-1 15 41 27q10 3 21 5q66 13 114.5 28.5t86 31t59.5 22.5q97 30 184 118q71 73 71 121q0 41 -58 41h-8q-97 -4 -230.5 -58t-244.5 -116q-515 -683 -543 -708q-28 -23 -72 -31q-13 -3 -26 -2l-62 14q402 487 535 643l22 19q-143 -47 -309.5 -83.5t-247.5 -43.5 q-53 -3 -39 19z" />
<glyph unicode="C" horiz-adv-x="745" d="M114 172q2 62 28.5 137.5t70.5 153.5t117.5 166.5t169.5 175.5q244 222 385 223q45 0 80 -24q12 -6 20 -14t15.5 -23t6 -41t-11.5 -62q-13 -51 -67 -123t-129 -129q-79 -58 -178 -110t-163 -76q-48 -18 -60 -18q-4 0 -5 2q-3 12 17.5 29t58 37t78.5 40.5t86 46t72 45.5 q70 51 126 115t78.5 110.5t8.5 59.5q-10 10 -31 10q-23 1 -59 -11q-70 -22 -158 -71q-38 -21 -88 -57.5t-113.5 -94t-119.5 -122t-104.5 -147.5t-70.5 -164q-16 -61 -15 -110q0 -20 2 -39q9 -63 41.5 -104t78.5 -60q42 -17 89 -17h10q54 2 105 24q5 2 21 11q44 24 57 24 q5 0 5 -3q2 -11 -25 -46q-17 -25 -61 -40q-37 -13 -83 -13q-8 1 -15 1q-54 2 -106.5 19t-95.5 61.5t-59 108.5q-9 48 -9 100v19z" />
<glyph unicode="D" horiz-adv-x="1282" d="M86 12q400 487 535 643q60 69 115 135.5t80 97.5l26 32q4 -1 9 -3t15.5 -10.5t13.5 -20.5t-6 -34.5t-34 -50.5q-567 -747 -596 -772q-24 -21 -70 -29q-12 -2 -25 -3q-32 0 -63 15zM383 8q-18 7 -18 14q0 11 51 20q40 8 90 11q554 154 683 397q36 68 36 138q0 86 -55 172 q-70 111 -199 179q-91 48 -167 48h-3q-37 0 -81.5 -4.5t-70.5 -8.5l-26 -5q-7 17 26.5 30.5t70.5 18.5l38 4q34 3 67 3q66 0 128 -12q92 -18 159.5 -56.5t116.5 -94.5t71 -121q19 -55 19 -116v-22q-4 -73 -37 -144q-36 -75 -92 -140t-120.5 -111t-137.5 -83t-144 -60 t-138 -39q-68 -14 -122 -20q-46 -5 -80 -5h-12q-38 1 -53 7z" />
<glyph unicode="E" horiz-adv-x="1046" d="M151 244q73 120 269 276q68 54 150 95.5t130 56.5l48 14q-7 1 -19 3t-40.5 14.5t-49 30t-32.5 52.5q-7 20 -7 43q0 17 4 37q17 79 83.5 120.5t146.5 41.5q2 0 4 1q79 0 154 -21q77 -21 120 -56q34 -36 34 -66q0 -5 -1 -9q-3 -22 -21 -15q-14 6 -28 29q-47 61 -154 72 q-19 2 -37 2q-82 0 -137 -41q-48 -34 -62 -78q-5 -14 -5 -27q0 -27 20 -51q29 -34 96 -41q37 -4 76.5 -6.5t61.5 -3t40.5 -3t24 -6.5t2.5 -14q-5 -14 -45.5 -19.5t-92.5 -8.5t-71 -9q-130 -39 -249.5 -125t-184.5 -161q-75 -83 -96 -154q-8 -26 -8 -49q1 -38 23 -64 q36 -42 118 -47q37 -3 73 -2q287 0 500 162q52 40 68 40q5 0 7 -4q3 -9 -17 -34q-9 -11 -39.5 -33.5t-84.5 -54.5t-122 -60.5t-153 -51.5q-86 -23 -178 -27q-16 -1 -31 0q-78 0 -163 14q-163 31 -163 129q0 47 38 109z" />
<glyph unicode="F" horiz-adv-x="1148" d="M147 18q222 285 400 508q-28 1 -55 0t-40 -2l-12 -2l-17 10q-15 14 19 19q15 3 41 4q40 2 97 4q54 68 149 184q33 39 83.5 106.5t61.5 80.5q-106 4 -120 4q-30 0 -46.5 1.5t-19.5 4t1.5 6t15.5 7.5t23 7t24 5q27 6 168 10l51 65q2 0 4.5 -1.5t10 -5.5t11 -11t7 -18.5 t-2.5 -26.5q102 2 255.5 4t260 3t132.5 3q23 2 41 2q43 0 55 -12q11 -11 -30 -30q-25 -11 -66 -23q-24 -7 -59.5 -11t-88.5 -5t-93.5 -1t-114.5 3t-108 4.5t-117.5 6t-102.5 5.5q-1 -2 -3.5 -9.5t-3.5 -9.5q-116 -160 -251 -340q434 22 507 31q41 4 63 -3.5t8.5 -24.5 t-66.5 -35q-39 -13 -219 -14h-71q-139 0 -259 3q-40 -55 -98 -134t-97 -132t-78.5 -106t-61 -81.5t-26.5 -31.5q-18 -16 -43.5 -26.5t-58.5 -10.5t-60 16z" />
<glyph unicode="G" horiz-adv-x="1566" d="M-154 -754q-18 29 -18 66q0 55 39 129q33 58 90.5 114t135.5 106.5t138.5 84.5t145.5 78q80 41 194.5 68t188.5 34l74 6q53 122 73 177q62 183 62 214q0 6 -2 7q-5 4 -53 -15t-152 -63t-182 -74q-151 -59 -230 -59h-2q-79 1 -115 59q-20 30 -22 73v9q0 40 15 87 q17 53 68.5 116.5t131.5 124.5q105 79 269.5 148.5t302.5 107.5t241 53q50 8 95 8q79 0 142 -24q97 -36 97 -107q0 -101 -273 -112q-38 -1 -41 19q-1 13 9 15q67 2 111 8.5t64 17t27 18.5t11 20q-1 4 0.5 11t-7 17t-21.5 19t-42.5 17.5t-69.5 13.5q-27 3 -59 3 q-96 0 -227 -30q-174 -40 -387 -137q-104 -48 -181.5 -109t-114 -115t-52.5 -96q-12 -34 -12 -58q0 -6 1 -11q6 -45 72 -63q33 -8 77 -8q45 0 103 9q105 16 248.5 89t255.5 155q36 26 66.5 56t48.5 51.5t32 40t22 26.5t13 6q10 -5 -10 -38t-39 -54q-18 -23 -65 -98.5 t-74 -132.5q-19 -39 -58.5 -136.5t-69.5 -175.5l-30 -78h23q82 0 204 -18q138 -21 234 -43t108 -29q9 -6 8.5 -14.5t-8 -15t-14.5 -2.5q-14 6 -143.5 27.5t-218.5 29.5q-60 6 -116 7q-24 1 -42 1q-25 0 -40 -1l-26 -1q-7 -15 -21 -41.5t-64 -102t-107 -143.5 q-69 -81 -184 -176.5t-248 -169.5q-129 -71 -210 -71h-7q-137 5 -183 75zM-42.5 -688.5q7.5 -15.5 18.5 -22.5t36 -16q19 -8 51 -9h6q31 0 75 9q50 10 104.5 31t122.5 64t133 102q64 59 118 120.5t86.5 108.5t54.5 86t29.5 60t4.5 24q-4 4 -53 -1.5t-133 -27.5t-156 -57 q-129 -65 -275 -175.5t-190 -187.5q-23 -41 -31.5 -67t-1 -41.5z" />
<glyph unicode="H" horiz-adv-x="1431" d="M178 10q151 192 307 385q-53 20 -53 34q0 17 54 16q15 0 35 -1h3q173 215 199 246q-95 -13 -166 -16q-14 -1 -27 -1q-55 1 -94 11q-48 12 -67.5 39t-24.5 42t-7 43q-1 5 -1 7q-4 42 12 38q18 -5 40 -50l9 -21q15 -42 73 -59q44 -13 98 -14q16 0 32 2q74 5 160 26 q65 77 125.5 151t88.5 109l27 35q21 27 46 27q19 0 40 -16q43 -34 55 -99q3 -17 4 -32q0 -35 -18 -62q-45 -71 -303 -133q-27 -37 -86 -130.5t-98 -146.5q299 0 563 -6q11 16 226 314l219 305q2 -1 5 -3.5t7.5 -13.5t3 -25.5t-13.5 -41t-37 -58.5q-162 -246 -318 -479 q94 -3 129 -10q12 -2 24 -5t23 -7t15.5 -7.5t1.5 -6t-19.5 -4t-46.5 -1.5q-63 0 -159 -8q-244 -361 -252 -369q-16 -16 -35 -25.5t-41 -7t-37 22.5q129 182 264 375q-258 -16 -417 -16q-98 0 -158 6q-239 -322 -258 -338q-17 -16 -40 -26.5t-54 -10.5t-58 16zM870 776 q201 72 217 105t10.5 53.5t-21 29t-36 5.5t-34.5 -17q-22 -22 -25 -26q-15 -20 -20 -25q-38 -51 -91 -125z" />
<glyph unicode="I" horiz-adv-x="1396" d="M200 173q-4 14 -4 25q0 26 25 38q45 22 99 24h10q46 0 86 -12q44 -13 80.5 -31t55.5 -33.5t15 -19.5q-2 -2 -7 -2q-22 0 -116 28q-82 25 -109 25q-11 0 -13 -4q-6 -15 -6 -29q0 -38 44 -70q60 -46 168 -50q8 0 16 -1q102 0 230 56q94 45 181.5 128t148 173t100 164.5 t58.5 128.5q32 93 39 165q2 18 2 32q0 45 -17 61q-3 2 -6 2q-26 0 -100 -83q-86 -95 -136 -181q-24 -44 -52 -135q-28 -92 -48 -152q-20 -59 -38 -58h-1q-3 0 -3 11q0 16 8 57q12 67 45.5 174t76.5 195q41 83 102.5 149t110.5 92q43 21 74 22.5t42.5 -5.5t27.5 -23 q25 -31 32 -55q8 -25 8 -56q0 -137 -153 -382q-84 -135 -181.5 -238t-191 -162.5t-174.5 -92t-156 -42.5q-34 -5 -66 -5q-116 0 -212 64q-77 50 -95 108z" />
<glyph unicode="J" horiz-adv-x="1146" d="M-87 -600q-6 29 -6 57q0 51 20 102q31 79 96.5 157t148.5 136.5t178 93.5q91 34 171 34h9q60 -1 60 -13q0 -3 -4 -7q-14 -14 -64 -30q-214 -18 -358 -166q-106 -110 -129 -238q-6 -30 -6 -57q0 -74 46 -116q20 -18 46 -27q31 -10 59 -10q25 0 48 8q51 16 105.5 83t88 119 t100.5 168q68 117 105 177q289 525 334 606q-47 -7 -91 -8h-15q-33 0 -53 3q-23 5 -22 11q3 18 20 18t60 -1h3q42 0 87 16q13 0 33 6q206 368 254 441q38 59 74 59q10 0 21 -5q41 -20 51 -98q2 -18 2 -37q0 -93 -55 -184q-39 -63 -101 -112q-60 -46 -142 -76 q-215 -389 -286 -498q-6 -10 -32 -53.5t-46.5 -77.5t-22.5 -35q-43 -71 -73 -119.5t-79 -122t-88.5 -122.5t-89.5 -106t-94.5 -87.5t-91.5 -51.5q-35 -16 -70 -16q-12 0 -23 2q-46 7 -87 40q-74 58 -91 137zM1128 584q103 67 154 174q50 108 50 127q0 5 -2 5q-1 0 -3 -1 q-21 -12 -96 -131q-33 -50 -103 -174z" />
<glyph unicode="K" horiz-adv-x="1574" d="M205 -14q377 473 547 680q-65 -12 -168 -19q-14 -1 -28 -1q-56 0 -94 10q-48 12 -67.5 40.5t-24.5 44t-7 43.5q-1 5 -1 7q-3 41 13 37q18 -4 40 -46l9 -24q18 -46 78 -62q40 -11 85 -12q23 0 49 4q74 8 161 33l231 285q31 46 55 46q14 0 26 -16q22 -30 22 -85 q0 -16 -2 -34q-6 -58 -29 -94q-48 -75 -223 -129q-38 -52 -119 -163.5t-135.5 -186t-116.5 -159t-97 -130.5t-42 -51q-17 -15 -42.5 -25t-58.5 -9.5t-61 16.5zM760 473q4 9 33.5 19.5t79 24.5t112 34.5t138.5 57.5t151.5 85t157.5 124.5t151 170.5l38 37q36 31 28 2 q-8 -23 -45 -86q-59 -99 -138.5 -181t-154 -131.5t-149.5 -87.5t-131 -56.5t-93 -31.5t-39 -18q-1 -3 -1 -7q0 -19 24 -69q30 -60 93 -138t134 -122q102 -63 383 -69l38 -3l-3 -1q-5 -2 -23 -10.5t-37.5 -12.5t-56.5 -6q-8 -1 -18 -1q-33 1 -83 7q-64 8 -151 27 q-73 16 -140 52.5t-114.5 81t-86.5 94.5t-61 93.5t-31.5 76t-4.5 44.5zM930 770q110 47 129 84q22 48 22 72q0 11 -4 17q-11 15 -32 -15q-2 -2 -3 -4q0 -2 -2 -2q-8 -15 -23 -36.5t-27 -35.5l-11 -14q-20 -26 -49 -66z" />
<glyph unicode="L" horiz-adv-x="1277" d="M284 35q-5 16 -5 33q-1 27 11 57q20 49 66 74q40 23 123 23q29 0 64 -3q60 77 181 233.5t167 215.5q-76 -11 -180 -15q-14 -1 -28 -1q-56 0 -94 10q-48 12 -67.5 39t-24.5 42.5t-7 43.5q-1 3 -1 4.5v3.5q-4 42 12 38q18 -4 41 -49l9 -22q15 -42 77 -58q42 -11 91 -12 q22 0 46 3q76 7 165 28q64 77 120.5 149.5t80.5 105.5l24 34q24 27 49 27q21 0 44 -19q42 -36 51 -103q2 -12 2 -23q0 -38 -19 -67q-51 -80 -276 -133q-58 -79 -191 -254.5t-180 -238.5q173 -45 315 -138q85 -54 175 -54q49 0 99 16q29 9 29 3q0 -1 -2 -5q-23 -55 -113 -63 l-26 -2q-77 0 -158 38q-205 89 -370 139q-14 -18 -17.5 -23t-18 -22.5t-21 -24t-21 -21.5t-24 -21t-25 -16.5t-28.5 -14t-29 -8t-33 -3.5t-35 5q-36 8 -48 49zM332.5 101q-8.5 -24 4.5 -37t36 -13q20 0 44.5 18.5t37.5 34.5t47 58q-20 3 -45 3q-12 -1 -26 -1q-41 -2 -54 -12 q-36 -27 -44.5 -51zM1051 754q169 61 190 106q15 32 15 53q0 20 -13 30q-21 17 -50 -6q-2 -3 -5 -5q-21 -21 -27 -29l-18 -24q-37 -49 -92 -125z" />
<glyph unicode="M" horiz-adv-x="1961" d="M342 35q402 487 537 643l20 18q-131 -19 -225 -19q-33 0 -61 2q-110 9 -179 58q-35 26 -31 32t26 1l22 -4q95 -26 182 -32q36 -3 68 -3q43 0 75 5q56 9 99.5 21.5t62.5 24.5l20 11q216 262 226 270l6 1q5 0 13 -1.5t16 -4t13.5 -9t4.5 -15.5q-2 -11 -17 -32.5t-40 -53.5 t-39 -55l65 53q132 101 200 101q25 0 41 -14q24 -21 24 -76q0 -46 -17 -115q7 7 18.5 18t47.5 38t72 46t84 32q33 9 63 9q14 0 28 -2q126 -19 125 -111q0 -19 -5 -42q-23 -90 -157 -284q-17 -24 -51 -73q-141 -199 -188 -291q-33 -64 -44 -114q-6 -29 -6 -53q0 -17 3 -31 q8 -32 31.5 -54.5t53 -33t65.5 -14.5q30 -4 56 -5q6 0 12 1q30 1 60 5q52 7 198 58q33 11 33 9q0 -5 -87 -56q-70 -42 -138 -62q-66 -20 -120 -20h-2q-56 0 -104 15.5t-79 46t-49 70.5q-15 34 -14 75v15q3 50 26 103q25 57 54 112.5t47 86.5t60.5 101.5t62.5 103.5 q114 187 139 246q20 47 20 79q0 40 -33 54q-22 10 -60 10h-7q-32 -1 -70.5 -20.5t-70.5 -47t-59 -54.5t-43 -46l-15 -19q-82 -135 -156 -268q-60 -112 -121 -155q-22 -14 -36 -14q-27 0 -27 36q1 37 65 132q68 100 139 182l71 81q3 6 8 17t17.5 41t21 56.5t15 54t3 45 t-17.5 18.5h-7q-29 -1 -60 -15q-35 -16 -66 -41t-92 -69.5t-124 -81.5q-527 -699 -542 -711q-28 -21 -72 -29q-12 -2 -23 -2q-32 0 -65 15z" />
<glyph unicode="N" horiz-adv-x="1273" d="M209 12q438 524 571 680l23 19q-131 -19 -226 -19q-33 0 -61 2q-110 9 -178 58q-23 15 -30 23.5t0 10t17 0.5t19 -4l10 -2q95 -26 182 -32q35 -3 66 -3q44 -1 78 5q56 10 99.5 22.5t62.5 24.5l20 12q179 225 187 231q2 -1 14.5 0t26.5 -5.5t12 -20.5q-1 -12 -15.5 -33.5 t-39.5 -54t-39 -56.5l-27 -22q5 6 15.5 15t42 31t63.5 38t78 26q28 6 56 5q17 0 34 -2q129 -19 129 -119q0 -61 -48 -153q-54 -103 -214 -311q-76 -98 -101 -134q-50 -74 -74 -136q-20 -52 -20 -91v-13q4 -42 24.5 -73.5t53 -47t68.5 -21.5q19 -3 38 -3q16 0 30 2 q34 5 58 18q41 24 57 24q10 0 10 -9q1 -17 -26 -40q-11 -10 -20 -12q-69 -19 -129 -19q-70 0 -127 26q-110 51 -110 179v9q5 189 243 481q159 196 159 305q0 81 -85 84q-9 1 -19 0q-39 -2 -78 -21.5t-63.5 -41.5t-60 -56t-54.5 -49q-522 -692 -544 -710q-26 -21 -70 -29 q-13 -2 -25 -2z" />
<glyph unicode="O" horiz-adv-x="1075" d="M276 134q-6 26 -6 55q0 107 84 256q90 160 218 269q92 79 165 93q12 2 2 -14q-6 -11 -87 -107q-49 -58 -81 -102q-33 -46 -60.5 -88t-55.5 -90.5t-45.5 -90t-29.5 -83.5q-9 -31 -8 -56q0 -9 1 -17q4 -32 20.5 -57t54 -38t93.5 -13q197 2 359 180q130 142 186 335 q28 97 28 175q0 68 -21 121q-40 101 -150 101h-15q-113 -7 -206 -35.5t-145 -65t-78.5 -62.5t-35.5 -44q-7 -17 -14 -8q-11 15 10 52q13 21 35 42q52 49 158 98q108 48 224 72q64 13 112 13q41 0 71 -9q77 -23 98 -155q7 -44 7 -92q0 -118 -44 -255q-75 -235 -236 -374 q-146 -126 -335 -140q-24 -2 -46 -2q-196 0 -227 136z" />
<glyph unicode="P" horiz-adv-x="1069" d="M223 10q171 273 316 500q-57 21 -70 45q-22 39 -22 59q0 8 4 13q3 4 8 4q15 0 47 -38q6 -7 12 -15q14 -18 45 -27q60 92 133 207q108 162 131 200q-234 -7 -407 -79q-121 -50 -146 -50q-6 0 -6 3q0 2 2 4q16 24 125 83q52 28 72 33q225 67 407 82l19 29q14 -7 18 -27 q40 2 76 2q95 0 168 -16q101 -24 147 -72q34 -36 34 -86q0 -17 -4 -36q-16 -74 -97 -162q-70 -73 -156 -119q-86 -45 -170 -61q-79 -15 -149 -15h-8q-74 1 -140 16q-265 -447 -278 -460q-14 -16 -32 -26.5t-40.5 -9.5t-38.5 19zM641 535q42 -5 86 -5q45 0 95 6 q96 12 199.5 61t162.5 132q31 48 31 85q-1 7 -1 13q-6 42 -52 70.5t-114.5 43.5t-156.5 17q-15 -25 -21 -34q-110 -186 -229 -389z" />
<glyph unicode="Q" horiz-adv-x="1095" d="M216 156q-6 27 -6 57q0 120 89 288q93 178 224 301q100 92 175 107q16 3 -12 -35.5t-91.5 -115.5t-96.5 -123q-67 -92 -115 -185.5t-73 -184.5q-9 -35 -9 -64q0 -49 25 -84q39 -56 145 -56h4q86 0 170 33q-10 18 -19.5 43.5t-11.5 28.5q-4 7 -4 13t1.5 9.5t7 7.5t9 5.5 t12 5t11.5 4.5q8 4 16 1t17 -17.5t13 -22t15 -29.5q3 -7 5 -10q111 68 184.5 193.5t93.5 251.5q8 49 8 96q0 72 -19 139q-31 110 -112 152q-26 13 -40 13q-17 0 -17 -19q0 -5 1 -10q8 -57 86 -171l20 -28q12 -14 0 -13q-25 2 -75 40q-42 34 -59 67t-27.5 70t-12 69.5 t10.5 52.5t35 23h5q23 0 63 -23q44 -27 103 -84q49 -46 77.5 -116.5t35.5 -151.5q1 -21 1 -43q0 -60 -13 -125q-18 -88 -57 -167.5t-107 -150.5t-157 -116q4 -4 5 -4q21 -21 30.5 -28.5t43.5 -17t87 -9.5q71 0 71 -10q0 -1 -1 -2l-8 -5q-64 -12 -117 -12q-114 0 -176 57 q-96 -33 -197 -41q-21 -1 -40 -1q-196 0 -227 147z" />
<glyph unicode="R" horiz-adv-x="1417" d="M225 4q171 273 314 498q-57 25 -68 47q-22 40 -22 59q0 8 3 12t8 4q16 0 49 -40l11 -13q14 -17 45 -28q109 173 133 207q67 105 131 202q-231 -7 -409 -80q-121 -50 -145 -50q-6 0 -5 3q0 1 1 4q14 23 125 84q52 28 71 33q219 64 410 80l18 31q14 -7 16 -27q40 2 76 2 q95 0 169 -16q102 -24 147 -72q34 -36 34 -87q1 -17 -3 -36q-16 -74 -99 -162q-182 -192 -463 -196q1 -26 33.5 -89t96 -140t130.5 -119q100 -61 379 -70q40 -1 40 -3l-3 -1q-3 -1 -31 -12q-27 -11 -53 -15q-10 -2 -27 -2q-27 0 -74 4q-75 6 -182 31q-81 17 -155 60 t-123.5 94t-87 106t-55.5 98t-19 68q-22 5 -27 8q-270 -453 -278 -461q-14 -16 -32.5 -26t-41 -9t-37.5 19zM641 528q50 -4 105 -4q2 0 4 -1q52 -1 114 13q64 14 121 35.5t110.5 61t90.5 90.5q31 46 31 83q0 7 -1 14q-7 42 -52.5 70.5t-114.5 44t-156 17.5q-14 -23 -23 -34 q-108 -189 -229 -390z" />
<glyph unicode="S" horiz-adv-x="1163" d="M199 131.5q5 25.5 24 52.5q40 58 94 90t105 37q19 2 38 2q32 1 64 -5q50 -8 85.5 -24.5t56.5 -33.5q43 -35 43 -60q0 -11 -9 -12q-7 0 -23 8t-28 16l-12 9q-59 65 -145 65q-26 0 -54 -6q-85 -18 -137 -74q-29 -31 -29 -55q0 -15 12 -28q5 -5 11 -9q33 -21 93 -32 q52 -10 114 -10h17q71 2 145.5 23.5t137.5 58.5t107 104t52 153q1 15 1 29q0 46 -15 83q-20 48 -56 75t-80 46.5t-87.5 33.5t-77.5 29.5t-50 40.5t-6 61q25 88 95 141q69 53 181 75q107 21 266 21h15q147 0 157 -69q1 -5 1 -11q0 -48 -63 -104q-78 -69 -173 -82 q-26 -4 -51 -2q-14 1 23 23q8 5 29 17q123 73 145 107q6 10 6 18q0 21 -39 32q-18 5 -66 7h-27q-39 0 -87 -3q-66 -4 -138.5 -27.5t-120.5 -64.5q-27 -23 -33.5 -43t7 -37t36.5 -32.5t58 -34t69.5 -38t72.5 -47.5t65 -59q34 -39 46 -98q6 -31 6 -64q0 -30 -4 -61 q-10 -66 -50.5 -131.5t-102 -118.5t-159.5 -86t-217 -33q-100 0 -171 12t-106.5 30.5t-50.5 44t-10 51z" />
<glyph unicode="T" horiz-adv-x="1380" d="M263.5 710q0.5 16 3 27t15.5 27t20 24t23.5 21t19 15t13.5 10q45 34 166.5 79t218.5 64q229 44 434 44q127 0 246 -17q83 38 138 38q41 0 64 -17t11 -36q-44 -61 -182 -65q-653 -868 -682 -893q-26 -21 -70 -29q-13 -2 -26 -2q-31 0 -62 14q400 487 535 643 q210 249 220 267q1 3 1 4q0 4 -114 8q-53 2 -116 2q-70 0 -152 -2q-154 -4 -236 -18q-145 -25 -240 -61.5t-152 -98.5q2 -2 5 -5.5t15.5 -12.5t28 -16.5t43 -16t59.5 -12.5q28 -4 68 -4q5 1 11 1q46 0 98 8q109 17 217 40q44 9 53.5 9t14.5 -10q5 -14 -18 -29.5t-70 -25.5 q-10 -2 -59 -16t-98.5 -25.5t-113.5 -21.5q-49 -8 -101 -8q-15 0 -31 1q-68 3 -124 21q-32 10 -53 22.5t-31.5 24.5t-10 28zM1491 985q11 -4 28 -4q22 0 56 7q24 6 25 11q0 3 -11 5h-2q-14 2 -28 2q-33 0 -61 -14q-8 -5 -7 -7z" />
<glyph unicode="U" horiz-adv-x="1187" d="M150 829q-3 42 13 38q18 -5 40 -51q5 -10 8 -19q17 -46 83 -62q44 -11 94 -10q26 0 52 2q80 8 176 33q108 173 187 270q2 2 12 17q22 27 46 27q19 0 41 -17q43 -33 55 -99q3 -16 3 -31q0 -37 -18 -65q-46 -73 -268 -131q-239 -365 -239 -542q0 -8 1 -17q2 -50 52 -68 q23 -8 53 -9q34 -1 77 11q80 20 168 74q73 44 203.5 187.5t241.5 287.5t206.5 271t96.5 129q21 21 43.5 26.5t32.5 -14.5q-273 -381 -443 -598q-50 -64 -95 -116.5t-101 -109t-108.5 -98.5t-113 -77.5t-118 -53t-121 -17.5t-125.5 21q-53 20 -57 90v11q0 67 38 163 q40 104 94 209t126 222q-114 -22 -213 -25h-22q-180 0 -198 111q-1 8 -2 23zM715 791q168 61 186 104q15 33 15 54t-14 31q-22 15 -51 -10l-3 -3q-12 -12 -23.5 -25.5t-16.5 -21.5l-5 -7q-53 -69 -88 -122z" />
<glyph unicode="V" horiz-adv-x="1484" d="M362 841q4 6 26 1l22 -4q95 -26 182 -32q38 -3 70 -3q42 1 74 5q57 8 101 20.5t63 23.5l20 12q176 226 186 232q2 -1 14 0.5t25.5 -5.5t11.5 -22q0 -6 -6 -27.5t-27 -66t-51 -86.5q-18 -26 -66 -62t-75 -73q-151 -203 -369 -578q41 17 119 51q106 45 158.5 67.5t141.5 63 t137.5 65.5t119 63.5t115 70.5t96.5 72.5t93 84t77 91.5q32 42 36 102v13q0 53 -30 104q-14 20 -17 35t2.5 21.5t13 10.5t13.5 5h7q51 -67 61 -138q2 -16 2 -33q0 -53 -24 -105q-32 -68 -85 -134.5t-137 -129.5t-170 -119.5t-191 -110.5t-191.5 -95.5t-181 -81t-150 -61.5 t-107.5 -41q-19 -17 -40 -17q-15 0 -30 9q240 421 437 711l22 18q-131 -19 -226 -19q-34 0 -62 2q-110 9 -179 58q-35 26 -31 32z" />
<glyph unicode="W" horiz-adv-x="1509" d="M261.5 822.5q3.5 6.5 25.5 1.5l22 -5q95 -27 182 -33q35 -3 66 -2q44 0 78 6q57 10 101 22t64 24l19 12q177 225 187 231q2 -1 14 0.5t25.5 -5t11.5 -21.5q0 -7 -6 -29.5t-26.5 -67t-51.5 -86.5q-19 -24 -67 -60.5t-75 -72.5q-150 -203 -376 -590q432 340 487 373 q6 4 6 -7q0 -6 -20 -108q-17 -84 -17 -143q0 -89 39 -119q21 -17 55 -17q44 0 109 30q85 38 153.5 115t109 166.5t67.5 187t36 181.5q8 76 8 134v13q-1 62 -11 85q-18 41 -7 39q14 -3 35 -49q24 -53 29 -115q0 -24 2 -60v-19q0 -29 -4 -65q-6 -48 -12.5 -100.5t-23.5 -111 t-38 -114t-56 -110t-76.5 -100t-100.5 -82t-127 -57.5q-88 -26 -145 -26h-2q-57 0 -86 22t-39 54q-8 24 -8 50q0 10 1 20q4 37 12.5 69t17.5 53l9 22q-366 -263 -491 -331q-21 -17 -35 -17q-15 0 -17 4q-2 0 -7 2.5l-7 3.5q241 421 436 711l21 19q-128 -18 -221 -18 q-35 0 -65 2q-109 10 -179 57q-35 25 -31.5 31.5z" />
<glyph unicode="X" horiz-adv-x="1071" d="M214 803q8 19 80 85q142 131 222 139h7q46 0 57 -52q17 -71 31 -219t18 -242q25 31 73 80.5t56 58.5q59 69 135.5 165t122.5 157l47 61l13 2q8 -2 8 -13q0 -26 -50 -105q-215 -285 -401 -531q11 -216 85 -286q50 -48 131 -48q38 0 83 11l47 2q15 -1 15 -5q0 -7 -41 -22 q-17 -6 -40 -14q-80 -27 -143 -27q-200 0 -227 272q-167 -221 -191 -245q-38 -33 -77 -33q-27 0 -54 16q149 193 305 379v13q0 32 2 142q1 52 1 100q1 89 -3 169q-6 123 -28 127q-16 3 -45.5 -6.5t-65.5 -29.5t-65.5 -37t-63 -38.5t-39.5 -25.5t-5 0z" />
<glyph unicode="Y" horiz-adv-x="1138" d="M30 -600q-6 29 -6 57q0 51 20 102q31 79 96.5 157t148.5 136.5t179 93.5q90 34 170 34h9q60 -1 60 -13q0 -3 -4 -7q-14 -14 -64 -30q-213 -17 -358 -165q-106 -109 -130 -237q-6 -31 -6 -57q0 -74 45 -116q19 -18 46 -27t53 -8.5t48.5 7t47 24t44.5 36t44.5 50t42.5 58 t43.5 68.5t43.5 73.5t46.5 80.5t48.5 82q1 1 52 92t110 196t70 124q84 153 90 164q-130 -214 -307 -269q-17 -5 -35 -5q-29 0 -62 13q-52 20 -90 70q-34 44 -34 99v12q3 58 48.5 169t101 212t104.5 177.5t59 78.5l18 -1q12 -3 12 -14q0 -17 -28 -51l-2 -2 q-41 -45 -102 -150.5t-109 -234.5q-34 -94 -34 -154q0 -24 5 -42q6 -20 27 -39t53 -32q17 -7 37 -7q19 0 42 6q47 12 95 53q58 48 169.5 196t209 287t117.5 158l63 82q44 30 60 30q8 0 8 -9q0 -20 -53 -110q-22 -37 -31 -54q-128 -231 -531 -942l-16 -35q-43 -75 -77 -133 t-81 -131.5t-88 -126t-88.5 -107t-92 -85.5t-90.5 -50q-32 -14 -65 -14l-25 2q-46 8 -87 41q-74 58 -91 137z" />
<glyph unicode="Z" horiz-adv-x="1331" d="M16 -551q-16 35 -16 75q0 54 29 119q62 142 226 237q216 127 535 127q92 0 193 -11q51 53 65 97q6 19 6 35q0 21 -10 37q-18 28 -57.5 47.5t-88 28t-103.5 9.5q-68 1 -68 24q0 19 46 53q24 19 61 40q196 113 286 177q217 157 217 266q0 32 -18 60q-23 35 -75 35 q-14 -1 -29 -3q-75 -12 -154.5 -47.5t-145.5 -82.5q-24 -17 -40 -9q-14 7 4 25q6 7 16.5 18t41.5 40t61.5 52t70 44.5t72.5 26.5q52 9 94 9q116 0 162 -64q25 -34 25 -78q0 -52 -34 -120q-72 -143 -255 -272q-123 -86 -275 -147q7 0 18.5 0.5t45.5 0.5t64.5 -3.5t67 -12.5 t62 -22.5t41 -37.5t11.5 -55t-33 -77t-86 -102q158 -23 319 -66l30 -27q31 -32 -2 -29q-11 0 -28 5q-215 52 -375 66q-13 -13 -16 -15q-53 -57 -135 -135q-75 -71 -153 -135.5t-175 -131.5t-196 -107t-179 -40q-89 0 -123 76zM100 -405q-11 -26 -12 -53q0 -40 25 -81 q12 -20 38 -24q6 -1 13 -1q22 0 50 10q37 12 79 31.5t93 52.5t97.5 64.5t100.5 73t94 72.5t86 69.5t68.5 57t48.5 41.5q9 15 20 18q5 2 12.5 8t8.5 7q-43 3 -82 3q-61 0 -113 -7q-75 -9 -170.5 -39t-191 -76t-166.5 -104t-99 -123z" />
<glyph unicode="\" horiz-adv-x="641" />
<glyph unicode="^" horiz-adv-x="528" />
<glyph unicode="_" horiz-adv-x="606" />
<glyph unicode="a" horiz-adv-x="858" d="M-48.5 55q-2.5 22 10 53.5t47 76t89.5 96.5q101 95 192 139.5t140 46.5h8q30 0 62 -19q38 -22 39 -38q3 -11 -21.5 -37.5t-30.5 -26.5q-6 7 -16 21q-16 21 -54 21q-19 0 -44 -5q-41 -9 -176 -117q-29 -25 -58.5 -53.5t-58.5 -68.5q-23 -31 -22 -50q0 -5 1 -10 q10 -26 48 -26q31 0 81 18q82 31 174 104q16 13 45 46.5t51.5 59.5t24.5 27q4 3 29 -7.5t31 -16.5q1 -1 1 -3q0 -16 -73 -89q-5 -7 15 -19.5t63 -23.5t94 -13h12q43 -1 97 17q60 20 102 42.5t43 22.5q5 0 5.5 -15.5t-1.5 -19.5t-22.5 -15t-60 -28.5t-81.5 -31.5 q-66 -23 -139 -23q-53 0 -109 12q-24 4 -46.5 19t-36 28t-15.5 13q-1 0 -19 -17.5t-56.5 -47t-84.5 -52.5q-67 -35 -123 -46q-34 -7 -58 -7q-16 0 -28 3q-32 7 -53 25q-15 13 -17.5 35z" />
<glyph unicode="b" d="M-18 193q-1 11 -1 23q0 75 58 169q300 483 483 594q77 47 143 64q30 8 55 8q30 0 52 -11q43 -20 43 -82q0 -33 -25 -76q-26 -45 -56.5 -80.5t-86.5 -85.5t-82 -71.5t-76 -60.5q-107 -80 -358 -209q-66 -101 -66 -183q1 -5 1 -10q4 -85 92 -106q20 -5 39 -5q21 0 43 6 q40 12 67 38.5t46.5 59t19.5 63.5t-13 53q-8 10 3.5 34t29 28t33.5 -31q15 -41 45 -69t60.5 -37t61 -12.5t46.5 3.5q51 15 80 15q17 0 28 -5q17 -8 -12 -21q-6 -3 -14 -6q-61 -21 -113 -27q-24 -3 -44 -3q-22 0 -40 4q-32 7 -55 16.5t-32 19.5l-9 9q-1 -5 -2.5 -13.5t-9 -32 t-18.5 -44.5t-32.5 -46t-48.5 -41q-27 -18 -69 -26q-25 -5 -52 -4q-19 0 -40 2q-65 8 -114.5 57t-59.5 132zM195 492l9 2q10 3 21 6.5t29.5 10t37.5 14.5t43.5 19t48.5 24t51.5 30t53 35.5t52.5 42t51 49.5q46 50 76.5 92t42.5 66.5t15 44.5t1 27t-6 12q-3 4 -14.5 4.5 t-36.5 -7t-56 -23.5t-78 -51t-98 -85q-81 -78 -141.5 -156.5t-80.5 -117.5z" />
<glyph unicode="c" horiz-adv-x="643" d="M-34 94q-2 10 -2 20q0 29 17 66q23 51 80 105q113 105 219 151q71 30 109 31q20 0 31 -8q18 -12 27 -31.5t7 -33t-10 -13.5q-2 0 -34 3t-65 3t-52 -6q-41 -11 -120 -61t-101 -91q-18 -34 -22 -72q0 -5 -1 -9q0 -33 23 -59t71 -26h13q91 7 223 41.5t203 67.5q99 45 140 50 q6 0 6 -2q1 -3 -17 -13q-174 -101 -254 -129q-83 -28 -219 -58q-97 -21 -150 -21q-22 0 -37 3q-31 8 -54 32t-31 60z" />
<glyph unicode="d" horiz-adv-x="993" d="M-52 100q-1 6 -1 13q0 54 53 129q34 45 78.5 81.5t83 57t72 34t53.5 19.5t20 8q27 116 67 213.5t80 160t83 108.5t77 67.5t62 28.5q14 4 28 4q20 0 42 -8q36 -13 66 -49q28 -35 40 -97q5 -28 6 -62q0 -41 -8 -89q-11 -67 -51.5 -145.5t-89.5 -143t-96 -120t-79 -86.5 l-32 -31q42 -47 144 -58q28 -3 55 -3q75 0 151 22q127 36 207 36h4q18 -1 18 -4q-1 -2 -6 -4q-50 -27 -188 -75t-236 -52h-9q-38 0 -72 7q-38 8 -61.5 19.5t-41 23.5t-27 19t-12.5 5q-143 -89 -313 -129q-21 -5 -40 -5q-38 0 -71 19q-49 28 -56 86zM65 173q-5 -19 -5 -35 q0 -27 13 -49q18 -29 54 -30q7 0 16 2q46 5 102 42.5t89.5 72.5t27.5 37q-4 3 -20.5 39t-31.5 71l-15 35q-48 -8 -81 -28.5t-99 -75.5q-37 -32 -50 -81zM376 425q0 -43 10 -69.5t20 -45.5t19 -26l9 -8q41 15 145 131.5t154 227.5q27 58 35 111q4 25 3 46q-1 24 -5 43 q-8 36 -21 59.5t-28 31.5q-11 7 -26 7q-32 0 -81 -33q-72 -48 -106 -107q-49 -80 -79.5 -152t-39.5 -122.5t-9 -93.5z" />
<glyph unicode="e" horiz-adv-x="655" d="M-32 230q14 67 73 122q56 53 111 84q56 30 96 36q17 2 32 2q20 0 36 -4q28 -8 40 -26q14 -25 14 -48q0 -10 -2 -19q-8 -31 -46 -76q-21 -24 -81 -59.5t-109 -58.5l-50 -23q13 -25 27 -41t50 -31.5t89 -17.5h14q66 0 140 16q82 18 135 40t101.5 44.5t49.5 22.5 q12 4 17 -3.5t3 -16.5l-1 -9q-141 -82 -234.5 -111.5t-267.5 -50.5q-19 -2 -37 -2q-58 0 -106 24q-62 32 -85 86q-15 33 -15 71q1 24 6 49zM59 225q-2 -6 31.5 2t79.5 28.5t72 45.5q28 26 42 49t11.5 38t-19.5 20q-3 1 -6 1q-19 -1 -60 -23q-49 -26 -96.5 -73t-54.5 -88z " />
<glyph unicode="f" horiz-adv-x="593" d="M-521 -692q2 44 24 102.5t63 118.5q64 94 161.5 227t171.5 231t76 101l564 770q2 0 29.5 -2t52.5 -2l34 4q7 0 -121 -165q-130 -168 -270 -346.5t-147 -190.5q-12 -24 3 -43t46 -25q1 0 14.5 -4t21.5 -6t27 -5t34 -3.5t39 0.5t46.5 5.5t52.5 12.5t59.5 20t65 30.5 t72.5 41.5q4 1 9.5 2t16 2t15 -1.5t-2 -11.5t-28.5 -24q-51 -36 -120.5 -71.5t-171.5 -61.5q-58 -15 -107 -15q-38 0 -70 9q3 -57 3 -103q0 -93 -13 -145q-25 -82 -106.5 -227.5t-174.5 -226.5q-98 -86 -184 -125q-68 -31 -108 -31q-11 0 -19 2q-16 4 -30 23t-22 55 q-6 28 -6 61v17zM-409.5 -690q-0.5 -26 8.5 -47t27 -28.5t52.5 6t81.5 50.5q123 99 198.5 227t92.5 271q9 86 9 149t-4 83l-5 20h-16q-30 -22 -226 -318.5t-212 -357.5q-6 -29 -6.5 -55z" />
<glyph unicode="g" horiz-adv-x="751" d="M-478 -739q-6 15 -6 35t6 46q12 52 50 117q45 77 133.5 155t184.5 136.5t183.5 104.5t149 73.5t62.5 28.5q12 12 21 85q6 55 -5 50q-2 0 -60 -27t-121 -49q-52 -19 -83 -19q-5 0 -10 1q-26 3 -45.5 27t-27.5 57q-5 18 -5 39q0 16 3 33q6 41 30 73q45 60 95 105.5t83 66.5 q48 29 102 47t102 21h11q41 0 69 -19q31 -23 31 -71q0 -60 -27.5 -161.5t-55.5 -173.5l-27 -71q32 10 82 27.5t150 62t136 78.5q33 31 58 31q4 0 8 -1q22 -5 2 -33q-40 -57 -205 -130q-238 -108 -254 -108q-85 -286 -227 -451q-118 -137 -207.5 -201.5t-169.5 -72.5 q-28 -6 -59.5 -2t-65 10.5t-57 28t-34.5 51.5zM-383 -639q-4 -20 -4 -36q0 -43 26 -63q13 -10 29 -10q65 0 204 82.5t218 192.5q51 72 94 160.5t60 140.5l18 53q-28 -11 -75 -32t-171.5 -93.5t-224.5 -154.5q-150 -123 -174 -240zM45 102q5 -26 23 -36t48 -4t65 21.5 t81 41.5q79 45 116 124q25 53 25 89q0 18 -6 31q-14 27 -49 27q-9 0 -20 -2q-50 -9 -113 -56q-69 -52 -123 -122q-48 -63 -48 -104q0 -5 1 -10z" />
<glyph unicode="h" horiz-adv-x="978" d="M-57 88q14 71 59 141q122 191 207.5 315t153.5 203.5t117 122.5t110 80q76 47 142 64q30 8 56 8q30 0 52 -12q41 -21 41 -80q0 -127 -324 -371q-47 -36 -139 -90t-163 -91.5t-81 -39.5q-20 -43 -55 -92q-30 -43 -45.5 -82.5t0.5 -46.5q9 -4 20.5 -0.5t29 15.5t26.5 19.5 t30 24.5q49 41 161 108q104 62 150 63q3 0 7 -1q31 -4 52 -23.5t50.5 -64.5t50.5 -70q24 -27 49 -40.5t54.5 -12.5t47.5 5t52 14q165 53 192 53q3 0 4 -1t1 -2q0 -8 -64 -42q-32 -17 -75.5 -42t-59.5 -33t-42 -19.5t-43 -11.5t-41 2.5t-56 11.5q-42 12 -78.5 42.5t-57 60 t-43 55t-40.5 28.5q-7 2 -14 2q-21 0 -51 -14q-40 -18 -66 -36t-70 -52q-13 -9 -43.5 -33t-54.5 -42t-51.5 -37.5t-48.5 -30.5t-32 -11q-19 0 -51 33t-26 53zM266 467q8 3 33 14t74.5 36.5t100.5 56.5t111 78t105 96q113 120 113 167q0 15 -11 22q-3 2 -4 3q-3 4 -14.5 4 t-36 -7t-55.5 -23.5t-77 -51.5t-97 -84q-80 -78 -140.5 -156t-81.5 -116z" />
<glyph unicode="i" horiz-adv-x="559" d="M4 76q-6 21 0 59q10 41 25 80q12 32 37 84q13 26 43 76q11 18 36 53q15 18 23 14q34 -31 39 -45q7 -20 -2 -41q-7 -17 -31 -51q-25 -31 -51 -82q-24 -45 -24 -76q0 -6 1 -12q5 -31 35 -51q35 -23 70 -23h12q62 0 121 19q24 6 92 39q61 28 86 45q34 23 57 23q5 0 9 -1 q7 -7 5.5 -12.5t-5.5 -9.5q-12 -12 -43 -27q-13 -6 -43 -21t-45 -22q-18 -7 -54 -24t-55 -25q-65 -27 -100 -35q-31 -7 -84 -6h-15q-34 0 -90 25q-41 20 -49 47zM301 735q-4 18 2 37q7 26 16 41q18 32 23 39q11 16 27 29q10 10 20 10q18 -5 29 -10q15 -9 26 -23 q16 -13 19 -27q7 -17 -2 -26q-13 -18 -31 -33q-30 -26 -43 -35q-26 -16 -43 -22q-21 -12 -27 -6q-16 10 -16 26z" />
<glyph unicode="j" horiz-adv-x="573" d="M-844 -559q5 43 35 98q30 51 76 92q47 47 115 74q94 42 215 88q112 42 172 62q81 26 118 36q6 2 52 17q10 10 18 20q22 33 31 45q4 7 18.5 29.5t22.5 36.5q6 11 21 35.5t22 38.5l125 194q17 25 40 69.5t39 75.5t21 33q19 11 47.5 -13t24.5 -34q-9 -18 -27 -45 q-5 -7 -11.5 -16t-15 -22t-14.5 -21q-6 -10 -45 -66q-29 -44 -76 -112q-15 -23 -78 -111q-7 -10 -35 -51.5t-44 -63.5q44 9 112 39q46 16 111 54q51 25 119 79q38 35 75 54q29 16 64 28q27 9 37 4q9 -6 -9 -24q-15 -21 -67 -58q-32 -22 -143 -86q-32 -18 -86 -46t-64 -33 q-46 -25 -111 -54q-88 -38 -96 -41q-30 -46 -74 -106q-43 -62 -79 -107q-43 -55 -97 -112q-61 -67 -116 -113q-66 -53 -107 -76q-53 -29 -94 -43q-52 -13 -84 -16h-14q-52 0 -84 20q-38 21 -52 60q-10 25 -10 58q0 14 2 30zM-766 -596q0 -33 18 -57q16 -22 54 -25 q10 -1 21 -1q45 0 93 20q54 20 109 63q37 27 106 96q29 32 103 119q73 92 76 96q10 13 25.5 34.5t21.5 29.5q13 17 30 45q-6 -3 -36.5 -17.5t-53.5 -23.5q-10 -4 -34 -13t-47.5 -17.5t-47.5 -16.5q-86 -29 -200 -62q-59 -17 -97 -47q-41 -26 -75 -69q-38 -52 -48 -80 q-15 -41 -18 -74zM375 627q0 20 4 30q0 15 8 35q5 15 12 29q1 2 15 16q12 4 24 4q15 3 27 0q8 0 20 -8q9 -6 7 -16q0 -23 -13 -49q-10 -17 -28 -39q-19 -19 -29 -25q-17 -10 -23 -10q-13 0 -18 8q-3 7 -6 25z" />
<glyph unicode="k" horiz-adv-x="714" d="M-180 4q-5 0 -5 5q0 15 62 77l2 2q63 78 218.5 284.5t280.5 373.5l124 167q8 12 36.5 18.5t53.5 1.5t24 -20q0 -16 -337 -438q70 23 123 23h16q58 -4 89.5 -23.5t35.5 -46.5q2 -10 2 -18q0 -27 -16 -49q-21 -29 -72 -62q-41 -27 -110.5 -41.5t-118.5 -15.5h-50 q-7 -19 -3.5 -50t12 -60t35 -53.5t65.5 -31.5q18 -3 37 -3q36 0 76 10q62 16 118 50t92 60t62 49q33 29 33 14q0 -18 -42 -56l-6 -5q-191 -166 -381 -166q-89 0 -141.5 67t-54.5 158q-15 -18 -29.5 -36.5t-21.5 -27.5t-9 -11q-74 -119 -92 -144q-2 -5 -11.5 -7t-23.5 -1.5 t-26 1.5t-27.5 3t-19.5 2zM182 317q-2 -3 8 -6q25 -7 59 -7q28 0 63 5q41 5 69 17q37 16 59 34t25.5 33t-10.5 27q-9 6 -28 6q-35 0 -105 -20q-108 -32 -140 -89z" />
<glyph unicode="l" horiz-adv-x="714" d="M-28 159q-2 16 -2 34q0 36 10 76q14 60 34 105.5t45 86.5q173 291 410 448q39 25 79 34q16 4 30 4q22 -1 42 -9q32 -14 37 -51q1 -5 1 -11q0 -54 -66 -150q-74 -106 -164 -200q-42 -43 -130.5 -114.5t-155 -123.5t-68.5 -57q-4 -14 -4 -28q0 -44 41 -81q54 -49 125 -61 q16 -2 34 -2q56 -1 138 19q110 26 206 76q76 35 99 35q10 0 10 -7t-10 -16q-7 -5 -23 -15.5t-51.5 -31t-75.5 -38t-93.5 -37.5t-105.5 -30t-113 -14q-14 -1 -27 -1q-46 0 -89 11q-76 16 -116.5 57.5t-46.5 91.5zM76 313q7 -5 55 21.5t131 91t158 145.5q47 52 80.5 97 t50.5 77.5t22.5 58.5t1 42t-17.5 24q-5 3 -12 3q-35 0 -120 -75q-102 -90 -226 -249q-57 -74 -88 -133t-33 -81z" />
<glyph unicode="m" horiz-adv-x="1304" d="M-73 43.5q2 25.5 26 58.5q23 30 61 98t69.5 131t33.5 66q5 10 44 21q51 13 48 -13q0 -4 -2 -8q-6 -19 -30.5 -73.5t-41.5 -95t-12 -40.5q3 0 83 70t169 140.5t112 71.5q29 0 48.5 -23.5t25.5 -52t4 -56.5q-1 -14 -7 -54.5t-7 -66.5q70 80 152.5 146t136.5 98q15 8 29 8 q27 -1 53 -29q36 -40 36 -100v-12q-1 -17 -5.5 -51.5t-7.5 -62t-4.5 -56.5t3 -48t14.5 -24q6 -3 18 -3q27 0 86 15q84 21 146 54q21 11 44.5 24t38 21t27.5 15t21 10.5t11 2.5q9 -1 9.5 -12.5t-7.5 -15.5q-5 -4 -44.5 -24.5t-101.5 -49.5t-110 -47q-7 -2 -20 -7 q-33 -12 -49.5 -17t-44 -13t-43 -8t-33.5 3t-28.5 14t-15.5 30q-2 9 -2 36q0 49 8 158q1 19 -9.5 38t-30 31t-53 4t-73.5 -40q-82 -69 -186 -199q-52 -68 -61 -75q-21 -15 -39 10q-2 3 -2 10q0 15 13 53q19 54 35 121q8 35 8 61q0 25 -7 44q-9 10 -26.5 13.5t-47 -5 t-61.5 -31.5q-49 -36 -101 -86t-97 -98.5t-60 -61.5q-9 -7 -23 -19t-20.5 -17t-17 -12.5t-16.5 -10t-13.5 -4.5t-14.5 -2q-17 1 -28.5 11.5t-9.5 36z" />
<glyph unicode="n" horiz-adv-x="1124" d="M-84 58q5 21 23 46q23 31 59.5 99.5t66.5 131t33 66.5q5 10 48 21q19 4 31 4q26 0 24 -18l-2 -7q-6 -18 -29.5 -73t-39 -95t-9.5 -40q3 0 103 72t208 142q102 66 130 66h3q26 -5 50 -33.5t35.5 -54t19.5 -51.5q3 -6 21 -60t34.5 -89.5t28.5 -39.5q8 -5 32 -5t63 4 q80 10 144 34q36 15 83.5 38.5t75 37t32.5 12.5q10 -1 18 -16.5t0 -20.5q-16 -10 -54 -30.5t-111.5 -55t-125.5 -51.5q-89 -29 -159 -32h-14q-59 0 -85 24q-39 39 -80 192q-4 18 -8 29t-15 25t-26.5 17.5t-44.5 -3t-67 -27.5q-120 -63 -355 -245q-16 -14 -32.5 -30.5 l-24.5 -24.5t-18.5 -14t-22.5 -5q-13 1 -24 7.5t-17.5 19t-1.5 33.5z" />
<glyph unicode="o" horiz-adv-x="868" d="M3 198q14 78 71 130q51 48 105 72t82 24h28q3 12 14 21t27 12.5t37.5 -4.5t42.5 -29q26 -26 41 -69.5t17 -74.5l1 -30q-1 -2 0.5 -6.5t23 -18.5t64.5 -30q73 -27 139 -27t154 29q39 13 55 13q11 0 11 -6q0 -15 -35 -34q-7 -4 -13 -6q-108 -35 -211 -35q-37 0 -90 18.5 t-87 36.5l-34 19q-1 -4 -2.5 -11.5t-10 -28.5t-20.5 -40t-35.5 -42.5t-53 -40.5t-75 -28.5t-99.5 -11.5q-82 0 -122 60q-29 44 -29 98q0 20 4 40zM88 164q-1 -6 -1 -11q0 -27 20 -51q23 -28 75 -41q16 -4 32 -4q24 1 48 9q40 14 67 39.5t48 53t31 48t8 22.5q-25 19 -53.5 57 t-44.5 66l-15 29q-49 -14 -100 -43q-23 -13 -49 -40.5t-44 -63.5t-22 -70z" />
<glyph unicode="p" horiz-adv-x="962" d="M-712 -498.5q-2 19.5 2 52.5t27.5 76.5t64.5 95.5q58 75 143.5 153t146.5 123t101 68l333 200q9 9 47.5 69.5t74.5 112.5t48 52q30 0 50 -14q18 -14 22 -29q-43 -66 -104 -154q9 5 24 12.5t62 27.5t94 35t111 27q59 11 111 11h9q50 -1 84 -30.5t43 -74.5q3 -21 3 -42 q0 -25 -5 -51q-10 -49 -48.5 -94t-96.5 -69q-91 -38 -179 -51q-48 -6 -88 -6q-32 0 -59 4q-60 10 -100 28t-53 38q-23 35 -7 47t45 -17l7 -8q30 -36 83 -44q20 -3 43 -3q36 0 79 8q35 6 63.5 13.5t68 25t67 41t49.5 64.5q26 51 26 97q0 38 -66 38q-31 0 -78 -9 q-94 -18 -340 -101q-8 -3 -14 -5q-11 -15 -59 -80t-74 -98q-2 -3 -49.5 -65t-104.5 -136.5t-132.5 -170t-131.5 -161.5q-45 -54 -94 -82.5t-87 -31.5q-11 -1 -21 -1q-27 0 -51 7q-34 9 -54 25t-26 32q-8 25 -10 44.5zM-611 -517q15 -10 35 -10q24 0 54 15q51 28 272.5 300.5 t231.5 307.5l49 60q-22 -12 -59 -33t-135 -82t-177.5 -117.5t-156 -128t-101.5 -125.5q-37 -82 -37 -130q0 -40 24 -57z" />
<glyph unicode="q" horiz-adv-x="923" d="M-42 142q11 45 52 91q46 53 127 101t129 69q67 31 133 46q39 9 74 9q24 0 47 -4q55 -11 68 -55l39 72q29 18 54 18q4 0 7 -1q37 -4 37 -20q0 -11 -69 -126q-72 -119 -148.5 -242t-79.5 -131q-6 -15 15.5 -27.5t50.5 -11.5q53 1 124.5 40t128.5 86t128.5 106.5t107.5 83.5 l29 6q28 2 -8 -27q-10 -8 -61 -55.5t-108.5 -96t-128 -98.5t-142.5 -78q-56 -22 -102 -22q-14 0 -26 2q11 -92 13 -145v-18q0 -22 -1 -48q-3 -36 -12 -93.5t-35.5 -117.5t-66.5 -106q-33 -37 -57.5 -58t-42 -28t-35 -8.5t-35.5 0.5q-29 1 -59.5 31t-44.5 86q-4 14 -4 31 q0 45 28 101q35 69 92 169.5t92 159t47 77.5q8 15 97 174q-2 4 -6 4q-1 0 -36 -17t-75 -33.5t-107 -29.5q-59 -12 -118 -12h-17q-29 1 -54.5 20t-38.5 50q-8 16 -8 37q0 18 6 39zM61 113q8 -43 62 -51q17 -3 35 -3q40 0 86 13q66 17 131 49q81 42 117 125q24 53 24 88 q0 20 -8 35q-12 21 -42 23h-10q-27 0 -58 -9q-37 -11 -91 -33q-57 -23 -112.5 -58t-98.5 -85q-36 -43 -36 -81q0 -7 1 -13zM170 -644q7 -17 21 -26t41 6t65 54q51 51 81 148q24 82 24 157q0 16 -1 31q-3 59 -7.5 99.5t-7.5 50.5l-3 11l2 -2q-23 -16 -125 -231 q-98 -206 -98 -253q0 -22 8 -45z" />
<glyph unicode="r" horiz-adv-x="790" d="M-24 164.5q-3 1.5 1.5 7t18.5 14.5l12 9q64 44 106 142t42 134q0 20 38 -21q3 -4 9 -10l14 -16q7 -8 41 -43.5t57 -62.5t23 -35q0 -11 1 -26.5t7.5 -45t17.5 -53t33.5 -43t53.5 -21.5q14 -1 29 -1q67 -1 153 21q105 26 145 56q32 24 42 9q10 -13 -7 -29l-6 -5 q-55 -44 -133 -77q-10 -4 -28.5 -13t-32 -15t-34.5 -14.5t-36 -12.5t-37.5 -9t-38.5 -3.5t-39 3.5q-80 16 -126 64q-46 47 -46 149q0 28 -38 64q-33 31 -49 31q-3 0 -5 -1q-5 -2 -21.5 -30t-51.5 -62t-87 -53q-2 -1 -6 -1.5t-11.5 -1t-10.5 1z" />
<glyph unicode="s" horiz-adv-x="796" d="M2 187.5q0 14.5 6 17.5q50 36 98 70t72.5 51t45 31.5t28.5 21t10 10.5q0 1 4 49q3 32 23.5 53t48.5 17q8 -2 13 -8t6 -16t1 -20.5t-3.5 -24t-6 -24t-6.5 -22.5q-5 -16 -4 -22q0 -23 24 -97q28 -82 31 -112q3 -27 0 -51.5t-6 -32t0 -17.5q8 -5 36.5 -3t83 14t107.5 30 q32 12 95 36q94 37 115 37q4 0 5 -1q3 -2 0 -8q-13 -23 -114 -68.5t-185 -68.5q-56 -15 -128 -23q-46 -5 -96 -5q-28 -1 -57 1q-81 4 -132 27q-30 13 -53.5 35t-36 44.5t-19 43.5t-6.5 35.5zM74 202q-2 -14 2 -34.5t13 -42.5t29.5 -43.5t49.5 -34.5q30 -16 53 -12.5t38.5 13 t26 27.5t15 31t6.5 23q1 5 1 12q0 21 -7 59q-9 52 -21 96t-18 42q-7 -3 -90.5 -57.5t-91.5 -61.5q-4 -3 -6 -17z" />
<glyph unicode="t" d="M-102 496q-25 -2 7 47q14 22 21 26q10 2 42 2h22q50 -1 108 -3l56 -3q6 9 17.5 25.5t58.5 67t106 98.5q44 36 77.5 54t52.5 19.5t31 -7t15.5 -20.5t3.5 -26q0 -19 -16 -71t-32 -94l-17 -42q92 1 157 1t103 -1q58 -2 54 -18q-3 -10 -24 -19q-12 -6 -94.5 -6t-158.5 3 l-76 3q-29 -45 -101 -131q-32 -37 -86.5 -85.5t-92.5 -78.5l-38 -30q-2 -5 -3.5 -14t2 -33t15.5 -42.5t45 -36.5t83 -22q21 -2 42 -2q96 0 202 34q129 41 196 79q59 34 82 34h3q5 0 5 -4q0 -10 -41 -44q-75 -61 -273 -115q-150 -41 -253 -41q-32 0 -60 4q-46 7 -76.5 33 t-42.5 59q-10 32 -14 71q-2 23 -3 41q-1 12 1 24q2 26 8 47q6 23 34.5 82.5t53.5 108.5l25 48q-196 -20 -227 -22zM107 280q12 0 47 35q17 16 68 69.5t94 99.5l42 46l-129 -10q-15 -18 -37 -46.5t-58 -91.5q-34 -60 -35 -92q1 -10 8 -10zM268 573h133l44 103q17 44 17 58 q0 6 -3 7q-10 5 -35.5 -9t-68.5 -55.5t-87 -103.5z" />
<glyph unicode="u" horiz-adv-x="1253" d="M6 242q9 70 30 124.5t36 55.5q4 1 11 1.5t21 -2t21.5 -9.5t5 -25t-21.5 -45q-23 -33 -29 -72q-2 -14 -3 -27q0 -24 7 -45q10 -33 20.5 -54.5t20.5 -34.5q10 -14 20 -20.5t32 -11.5t60.5 8t92.5 42q36 19 75 48t69.5 57.5t63 63t51.5 57t39.5 47t22.5 26.5q29 34 45 34 q12 0 17 -18q4 -25 1 -37.5t-12.5 -46t-13.5 -59.5q-1 -7 -1 -14q-1 -29 13 -67q16 -48 47 -84.5t62 -37.5q9 -1 19 -1q115 0 331 108q105 52 135 52q12 0 12 -8q0 -9 -10 -22q-27 0 -170 -92q-100 -65 -178 -79q-58 -11 -145 -10q-30 0 -64 1q-53 3 -95.5 66.5t-47.5 101.5 q-3 23 -12 31.5t-23 -4.5q-16 -17 -125 -95t-168 -110q-45 -25 -93 -31l-20 -2q-37 0 -73 19q-46 24 -66 83q-13 46 -13 93q0 22 3 45z" />
<glyph unicode="v" horiz-adv-x="952" d="M3.5 40q-4.5 30 3.5 63.5t26 82.5q12 33 20 74t11.5 71t8 57t13.5 39t25 9q7 -1 18.5 -3t18 -3t14 -3t11 -5t3.5 -8t-26.5 -78.5t-47.5 -143.5q-14 -46 -14 -65q0 -10 4 -12q13 -13 58 -3t102 46q67 40 136 108.5t87 122.5q18 52 45.5 75.5t46.5 12.5q10 -10 6.5 -32.5 t-13.5 -46.5l-9 -23q2 -6 6.5 -15t21 -33.5t35 -44t48.5 -37.5t63 -22q44 -7 82 -7q88 0 151 36q24 13 33 -1q11 -16 -17 -37q-28 -20 -83 -30q-40 -7 -78 -7q-118 0 -227 63q-25 15 -47.5 36t-32.5 32.5t-12 10.5q-1 0 -39.5 -37t-92 -84t-88.5 -69q-19 -12 -62.5 -42.5 t-70 -48t-58 -30t-50.5 -6.5q-25 8 -29.5 38z" />
<glyph unicode="w" horiz-adv-x="823" d="M-14 131q0 54 24 151t47 160q6 17 49 25q44 8 46 -12v-4q-4 -14 -43 -113t-39 -148q0 -21 11.5 -41t31 -33t51.5 -4t69 44q43 40 96 110t72 103q6 9 17 26q36 54 48 60q15 5 32 -17q3 -3 3 -13q0 -18 -10 -58q-15 -61 -27 -122q-5 -25 -5 -49q0 -35 10 -67 q10 -11 27.5 -15t46 5.5t57.5 34.5q59 52 144 152.5t94 109.5q18 19 42 45q26 29 31.5 30t10.5 -24q5 -23 10 -39l-45 -29q-19 -12 -80.5 -81.5t-125 -142t-135.5 -132t-114 -59.5q-55 0 -63 139q-1 11 -3.5 36.5t-4 51t-1.5 47.5q-65 -85 -134.5 -152t-116.5 -98 q-17 -11 -34 -11l-48 23q-41 39 -41 111z" />
<glyph unicode="x" horiz-adv-x="913" d="M-63 6q-13 -2 2 11q50 48 244 161q51 30 102 58q-5 37 -15 87t-14 80t0 46q2 5 7 8t14 4.5t15.5 2.5t17.5 2t14 1q16 0 21.5 -21.5t7.5 -78.5t5 -84l326 174q47 25 61 25q6 0 6 -5l-1 -6q-204 -116 -388 -225q6 -42 17.5 -74t32.5 -60q22 -28 59 -38q21 -6 47 -6 q19 0 41 4q70 12 137 49t133 88t82 61q21 13 16 5q-12 -22 -99 -89q-68 -52 -130 -88l-65 -35t-75 -34t-84 -26q-16 -3 -32 -3q-20 0 -40 4q-37 8 -58 35q-35 44 -53 156q-41 -24 -81 -53.5t-65.5 -50.5t-29.5 -23q-51 -33 -178 -62z" />
<glyph unicode="y" horiz-adv-x="757" d="M-590 -785q-17 28 -17 65q0 55 40 130q33 59 90.5 115.5t134.5 107t138 85t145 77.5q80 41 194 68t188 34l74 7q54 121 74 174q3 12 23 72t28 90q-2 0 -5 -3t-5 -4q-14 -14 -114.5 -75.5t-157.5 -89.5q-31 -15 -64 -22q-23 -5 -45 -5l-23 1q-33 4 -60.5 24.5t-41.5 56.5 q-12 37 -12 76q0 18 2 36q9 57 29 101t34 45q4 1 10 1.5t19 -1.5t20 -7.5t4.5 -20t-20.5 -36.5q-22 -28 -27 -60t4 -59t18.5 -45t18.5 -28q11 -10 19.5 -14.5t30 -8.5t57 6t84.5 33q122 57 274 215l58 82q41 30 57 30q9 0 9 -11q0 -23 -56 -130l-16 -32q-19 -39 -59 -136.5 t-70 -174.5l-31 -78h22q83 0 206 -18q140 -22 234.5 -44t108.5 -28q9 -6 8.5 -15t-8 -16t-14.5 -4q-12 7 -142 29t-223 30q-59 5 -114 6h-47h-33l-25 -2q-7 -15 -21.5 -41t-65 -100.5t-107.5 -142.5q-69 -82 -184.5 -178t-249.5 -170q-128 -72 -209 -72h-7q-137 5 -182 75z M-480.5 -692.5q-3.5 -30.5 10 -42t46.5 -23.5q18 -7 50 -8h3q31 0 79 10q50 9 104.5 30t122.5 64.5t133 102.5q102 94 175.5 191.5t98.5 150t18 57.5q-4 4 -53 -1.5t-133 -28t-156 -58.5q-131 -65 -275.5 -174.5t-188.5 -187.5q-31 -52 -34.5 -82.5z" />
<glyph unicode="z" horiz-adv-x="706" d="M-611 -750q-18 28 -18 64q0 54 39 127q40 71 113 134t126 94t165 89q21 11 32 17q74 37 182 63t167.5 33.5t95.5 9.5q8 35 6 55.5t-8 28.5l-6 8q-19 32 -83 32q-21 0 -46 -3q-40 -6 -65 -6q-40 0 -40 15q0 21 87 82q30 22 38 28q92 68 150 158q49 76 49 108q0 6 -2 10 q-9 15 -27 12t-48 -20.5t-63 -42t-71.5 -51.5t-72.5 -50t-67.5 -38t-56.5 -14q35 29 89 72t161 118.5t143 83.5q8 2 16 2q31 0 58 -27q32 -32 32 -77q0 -28 -12 -61q-43 -119 -235 -257h6.5t17.5 -1.5t25 -4t27.5 -8t28 -13t24 -20.5t17.5 -28.5t5.5 -38.5t-8.5 -50h23 q83 0 201 -18q136 -21 227.5 -42t108.5 -28q12 -7 3.5 -23t-20.5 -10q-7 3 -66 14.5t-144.5 24t-145.5 17.5q-57 6 -107 8q-30 1 -50 0h-22l-22 -2q-80 -131 -205 -281q-113 -133 -283 -251q-164 -115 -282 -115h-8q-134 3 -179 73zM-503 -660.5q-3 -29.5 10 -41t44 -23.5 q43 -14 89 -14q156 0 331 168q170 163 260 325q14 23 17 31q3 6 7.5 14t7 13t3.5 8q3 5 -49.5 -0.5t-138.5 -28t-156 -57.5q-126 -63 -238 -149.5t-155 -164.5q-29 -51 -32 -80.5z" />
<glyph unicode="|" horiz-adv-x="399" />
<glyph unicode="&#xab;" horiz-adv-x="909" />
<glyph unicode="&#xb0;" horiz-adv-x="147" />
<glyph unicode="&#xb1;" horiz-adv-x="550" />
<glyph unicode="&#xb7;" horiz-adv-x="161" />
<glyph unicode="&#xbb;" horiz-adv-x="888" />
<glyph unicode="&#xbf;" />
<glyph unicode="&#x2c6;" horiz-adv-x="632" />
<glyph unicode="&#x2018;" horiz-adv-x="176" />
<glyph unicode="&#x2019;" horiz-adv-x="165" />
<glyph unicode="&#x201c;" horiz-adv-x="301" />
<glyph unicode="&#x201d;" horiz-adv-x="317" />
<glyph unicode="&#x2022;" horiz-adv-x="239" />
<glyph unicode="&#x2039;" horiz-adv-x="593" />
<glyph unicode="&#x203a;" horiz-adv-x="569" />
<glyph unicode="&#x25fc;" horiz-adv-x="481" d="M0 0v481h481v-481h-481z" />
</font>
</defs>
</svg>
